#TITLE:Tonight;
#SUBTITLE:;
#ARTIST:Koyote;
#TITLETRANSLIT:Tonight;
#SUBTITLETRANSLIT:;
#ARTISTTRANSLIT:Koyote;
#CREDIT:;
#BANNER:Tonight-bn.png;
#BACKGROUND:Tonight-bg.png;
#LYRICSPATH:;
#CDTITLE:pm4cd.png;
#MUSIC:Tonight.mp3;
#OFFSET:0.000;
#SAMPLESTART:86.060;
#SAMPLELENGTH:20.000;
#SELECTABLE:YES;
#BPMS:0.000=143.010;
#STOPS:;
#BGCHANGES:;
// cache tags:
#FIRSTBEAT:1.250;
#LASTBEAT:605.250;
#SONGFILENAME:Songs/Music V.I.P ^_^/Tonight/Tonight.sm;
#HASMUSIC:1;
#HASBANNER:1;
#MUSICLENGTH:259.536;
// end cache tags

//---------------dance-single - ----------------
#NOTES:
     dance-single:
     :
     Hard:
     11:
     1.000,0.962,1.000,0.015,1.000,1304.000,519.000,4.000,0.000,29.000:
0000
0000
0000
0000
0000
1001
0000
0100
0000
1010
0000
0000
0000
0000
0000
0000
,
0000
0010
0000
1100
0000
0011
0000
0010
0000
0101
0000
0000
0000
0000
0000
0000
,
0000
0010
0000
0101
0000
1010
0000
0100
0000
0011
0000
0000
0000
0000
0000
0000
,
0000
0100
0000
1010
0000
0110
0000
0001
0000
1100
0000
0000
0000
0000
0000
0000
,
0000
0010
0000
0100
0000
0011
0000
0100
0000
1010
0000
0000
0000
0000
0000
0000
,
0000
0100
0000
1010
0000
0101
0000
0010
0000
1001
0000
0000
0000
0000
0000
0000
,
0000
0010
0000
0101
0000
0010
0100
1000
0100
0010
0001
0010
0100
0001
0010
0100
,
1000
0100
0010
0001
0010
0100
0010
0001
1000
0100
0010
0100
1000
0100
0010
0001
,
0010
0100
1000
0100
0010
1001
0000
0010
0000
1100
0000
0010
0000
0100
0000
0011
,
0000
0100
0000
1010
0000
0100
0000
0011
0000
0100
0000
1010
0000
0100
0000
1001
,
0000
0110
0000
0101
0000
1010
0000
0100
0000
0011
0000
0100
0000
1000
0000
0101
,
0000
0010
0000
1001
0000
0100
0000
0011
0000
0100
0000
1010
0000
0100
0000
1000
,
0000
0011
0000
0100
0000
1001
0000
0010
0000
0101
0000
0010
0000
1000
0000
0110
,
0000
0001
0000
1100
0000
0010
0000
0101
0000
0010
0000
1100
0000
0001
0000
0010
,
0000
0101
0000
0010
0000
1100
0000
0010
0000
1001
0000
0100
0000
0010
0000
0101
,
0000
0010
0000
1100
0000
0001
0000
0110
0000
1000
0000
0011
0000
0100
0000
1010
,
0000
0101
0000
0010
0100
1001
0000
0010
0000
0101
0000
0010
0000
1000
0000
0101
,
0000
0010
0000
1100
0000
0010
0000
1001
0000
0100
0000
1010
0000
0100
0000
0011
,
0000
0100
0000
0000
0000
1001
0000
0010
0000
1100
0000
0010
0000
0100
0000
0011
,
0000
0100
0000
1010
0000
0100
0000
1001
0000
0010
0000
1100
0000
0010
0000
0100
,
0000
1010
0000
0100
0000
0011
0000
0100
0000
1001
0000
0010
0000
0100
0000
0011
,
0000
0100
0000
1000
0000
0011
0000
0100
0000
1001
0000
0010
0000
0100
0000
0001
,
0000
0110
0000
1000
0000
0010
0000
0101
0000
0010
0000
1100
0000
0001
0000
0110
,
0000
1000
0000
0101
0000
0010
0100
1000
0100
0010
0001
0010
0100
0010
0001
1000
,
0100
0010
0001
0010
0100
1000
0100
0010
0100
1000
0100
0010
0001
0010
0100
0010
,
0001
0010
0100
1000
0100
0011
0000
0000
0000
1010
0000
0000
0000
0100
0000
0010
,
0000
0001
0000
0010
0000
1100
0000
0000
0000
0101
0000
0000
0000
0011
0000
0000
,
0000
1001
0000
0000
0000
1010
0000
0000
0000
0110
0000
0000
0000
0001
0000
0010
,
0000
0100
0000
1000
0000
0101
0000
0000
0000
0011
0000
0000
0000
1010
0000
0000
,
0000
1100
0000
0000
0000
0101
0000
0000
0000
1010
0000
0000
0000
0100
0000
0001
,
0000
0010
0000
1000
0000
0101
0000
0000
0000
0110
0000
0000
0000
1001
0000
0000
,
0000
1010
0000
0000
0000
0101
0000
0000
0000
0011
0000
0000
0000
1000
0000
0010
,
0000
0100
0000
0001
0000
1010
0000
0000
0000
0101
0000
0000
0000
0011
0000
0100
,
0000
1010
0000
0100
0010
1001
0000
0100
0000
1010
0000
0100
0000
0011
0000
0100
,
0000
1001
0000
0010
0000
1100
0000
0010
0000
0101
0000
0010
0000
1001
0000
0100
,
0000
0011
0000
0100
0000
1010
0000
0100
0000
1001
0000
0010
0000
1100
0000
0010
,
0000
0101
0000
0010
0000
1001
0000
0100
0000
1010
0000
0100
0000
0011
0000
1000
,
0000
0101
0000
0010
0000
1001
0000
0010
0000
1100
0000
0010
0000
0101
0000
0010
,
0000
1001
0000
0100
0000
1010
0000
0100
0000
1001
0000
0010
0000
0101
0000
0010
,
0000
1100
0000
0010
0000
1001
0000
0100
0000
0011
0000
0100
0000
1010
0000
0100
,
0000
1001
0000
0010
0000
0101
0000
0010
0000
1100
0000
0010
0000
0100
0010
0001
,
0010
0100
1000
0100
0010
0001
0010
0100
0001
0010
0100
1000
0100
0010
0001
0010
,
0100
1000
0100
0010
0100
1001
0000
0010
0000
1100
0000
0010
0000
1001
0000
0010
,
0000
0101
0000
0010
0000
1001
0000
0100
0000
1010
0000
0100
0000
0011
0000
0100
,
0000
1001
0000
0010
0000
1100
0000
0010
0000
0101
0000
0010
0000
1001
0000
0100
,
0000
0011
0000
0100
0000
1010
0000
0100
0000
1001
0000
0010
0000
1100
0000
0010
,
0000
0101
0000
0010
0000
1001
0000
0100
0000
1010
0000
0100
0000
0011
0000
1000
,
0000
0101
0000
0010
0000
0101
0000
0010
0000
1001
0000
0010
0000
1100
0000
0010
,
0000
0101
0000
0010
0000
1001
0000
0100
0000
1010
0000
0100
0000
0011
0000
1000
,
0000
0101
0000
0010
0000
1001
0000
0010
0000
1100
0000
0010
0000
0101
0000
0010
,
0000
1001
0000
0100
0000
1010
0000
0100
0000
1001
0000
0010
0000
0101
0000
1100
,
0000
0011
0000
0100
0010
1001
0000
0100
0000
0011
0000
0100
0000
1010
0000
0100
,
0000
1001
0000
0010
0000
0101
0000
0010
0000
1100
0000
0010
0000
1001
0000
0100
,
0000
0011
0000
0100
0000
1010
0000
0100
0000
0011
0000
0100
0000
1001
0000
0010
,
0000
0101
0000
0010
0000
1100
0000
0010
0000
1001
0000
0100
0000
0011
0000
0100
,
0000
1010
0000
0100
0000
0011
0000
0100
0000
1001
0000
0010
0000
1100
0000
0010
,
0000
0101
0000
0010
0000
1100
0000
0010
0000
0101
0000
0010
0000
1001
0000
0100
,
0000
0011
0000
0100
0000
1010
0000
0100
0000
0011
0000
0100
0000
1011
0000
0100
,
0000
1001
0000
0010
0000
1101
0000
0010
0000
0101
0000
1000
0000
0011
0000
0100
,
0000
1010
0000
0100
0000
1001
0000
0010
0000
1100
0000
0010
0000
0101
0000
0010
,
0000
1001
0000
0100
0000
0011
0000
0100
0000
1010
0000
0100
0000
1001
0000
0010
,
0000
0101
0000
0010
0000
1100
0000
0010
0000
0101
0000
0010
0000
0101
0000
0010
,
0000
1001
0000
0100
0000
1010
0000
0100
0000
0011
0000
0100
0000
1010
0000
0100
,
0000
1001
0000
0010
0000
1100
0000
0010
0000
0101
0000
0010
0000
1001
0000
0100
,
0000
0011
0000
0100
0000
1010
0000
0100
0000
1001
0000
0010
0000
1100
0000
0010
,
0000
0101
0000
0010
0000
1001
0000
0100
0000
0011
0000
0100
0000
1000
0100
0010
,
0001
0010
0100
0001
0010
0100
1000
0100
0010
0100
0010
0001
0010
0100
1000
0100
,
0010
0100
0010
0001
0010
1100
0000
0010
0000
0101
0000
0010
0000
0100
0000
1000
,
0000
0101
0000
0010
0000
0001
0000
0010
0000
0101
0000
1000
0000
0100
0000
0010
,
0000
0101
0000
0011
0000
1100
0000
0010
0000
0101
0000
0010
0000
0100
0000
0010
,
0000
0101
0000
0010
0000
0100
0000
1000
0000
0101
0000
0010
0000
0100
0000
1000
,
0000
0101
0000
1100
0000
0011
0000
1000
0000
0101
0000
0010
0000
0100
0000
0010
,
0000
0101
0000
0010
0000
0001
0000
0010
0000
0101
0000
0010
0000
0100
0000
1000
,
0000
0101
0000
0011
0000
1100
0000
0010
0000
0101
0000
0010
0000
0100
0000
0010
,
0000
0101
0000
0010
0000
1100
0000
0010
0000
0101
0000
0010
0000
1001
0000
0110
,
0000
0011
0000
1100
1100
1100
0000
0010
0000
0101
0000
0010
0000
1100
0000
0010
,
0000
1001
0000
0100
0000
1010
0000
0100
0000
0011
0000
1000
0000
0101
0000
0010
,
0000
1100
0000
0001
0000
1010
0000
0001
0000
0110
0000
1000
0000
0101
0000
0010
,
0000
1001
0000
0100
0000
0011
0000
1000
0000
0101
0000
0010
0000
1001
0000
0100
,
0000
0011
0000
0100
0000
1001
0000
0010
0000
1100
0000
0001
0000
1010
0000
0100
,
0000
1001
0000
0010
0000
1100
0000
0001
0000
1010
0000
0100
0000
0011
0000
0100
,
0000
1001
0000
0010
0000
1100
0000
0010
0000
1001
0000
0100
0000
0011
0000
1000
,
0000
0101
0000
0010
0000
1100
0000
0001
0000
1010
0000
0100
0000
1001
0000
0010
,
0000
1100
0000
0010
0000
0001
0010
0100
0010
0001
0010
0100
1000
0100
0010
0100
,
0010
0001
0010
0100
0010
0001
0010
0100
1000
0100
0010
0100
0010
0001
0010
0100
,
0010
0000
0001
0010
0100
0010
0100
1000
0100
0010
0101
0000
0000
0000
0010
0000
0000
0000
1010
0000
0000
0000
0100
0000
0000
0000
0010
0000
0000
0000
0001
0000
,
0000
1010
0000
0100
0000
1000
0000
0100
0000
1010
0000
0100
0000
0010
0000
0100
,
0000
1010
0000
0100
0000
1110
0000
0001
0000
1010
0000
0100
0000
1000
0000
0100
,
0000
1010
0000
0100
0000
0011
0000
0100
0000
1010
0000
0100
0000
0011
0000
1100
,
0000
1010
0000
0110
0110
0110
0000
1000
0000
0101
0000
0010
0000
1001
0000
0010
,
0000
1100
0000
0001
0000
1010
0000
0100
0000
0011
0000
1000
0000
0101
0000
0010
,
0000
1001
0000
0100
0000
0011
0000
0100
0000
1010
0000
0100
0000
1001
0000
0100
,
0000
0011
0000
0100
0000
1000
0100
0010
0001
0010
0100
1000
0100
0010
0100
1000
,
0100
0010
0001
0010
0100
0010
0001
0010
0100
1000
0100
0010
0001
0010
0100
1000
,
0100
0001
0010
0100
1000
0111
0000
1000
0000
0101
0000
0010
0000
1100
0000
0001
,
0000
1010
0000
0100
0000
1001
0000
0010
0000
1100
0000
0010
0000
0101
0000
0010
,
0000
1100
0000
0010
0000
1001
0000
0100
0000
0011
0000
1000
0000
0101
0000
0010
,
0000
1100
0000
0001
0000
1010
0000
0100
0000
0011
0000
0100
0000
1001
0000
0010
,
0000
1100
0000
0010
0000
0101
0000
1000
0000
0011
0000
0100
0000
1010
0000
0100
,
0000
1001
0000
0010
0000
1100
0000
0001
0000
1010
0000
0100
0000
1001
0000
0100
,
0000
0011
0000
1000
0000
0101
0000
0010
0000
1001
0000
0100
0000
0011
0000
0100
,
0000
1010
0000
0100
0000
1001
0000
0010
0000
1100
0000
0001
0000
1010
0000
0100
,
0000
0011
0000
1000
0000
0010
0100
0010
0100
1000
0100
0010
0100
0010
0001
0010
,
0100
0000
1000
0100
0010
0100
0010
0001
1000
0100
1011
0000
0000
0000
0100
0000
0000
0000
0011
0000
0000
0000
1000
0000
0000
0000
0101
0000
0000
0000
0010
0000
,
0000
1001
0000
0010
0000
1100
0000
0001
0000
1010
0000
0100
0000
0011
0000
0100
,
0000
1001
0000
0010
0000
1101
0000
0010
0000
1100
0000
0001
0000
1010
0000
0100
,
0000
0011
0000
1000
0000
0101
0000
0010
0000
1001
0000
0010
0000
1100
0000
0001
,
0000
0110
0000
1000
0000
0111
0000
1000
0000
0011
0000
0100
0000
1001
0000
0010
,
0000
0101
0000
0010
0000
1100
0000
0001
0000
0110
0000
1000
0000
0011
0000
0100
,
0000
1010
0000
0001
0000
1101
0000
0010
0000
1001
0000
0100
0000
1011
0000
0100
,
0000
1010
0000
0001
0000
1110
0000
0001
0000
0110
0000
1000
0010
0101
0000
0110
,
0000
1010
0000
0011
0011
0011
0000
1000
0000
0110
0000
0001
0000
1010
0000
0100
,
0000
1001
0000
0010
0000
1100
0000
0001
0000
1010
0000
0100
0000
0011
0000
1000
,
0000
0101
0000
0010
0000
1101
0000
0010
0000
1001
0000
0100
0000
0011
0000
1000
,
0000
0101
0000
0010
0000
1100
0000
0001
0000
1010
0000
0100
0000
0011
0000
1000
,
0000
0101
0000
0010
0000
1101
0000
0010
0000
1100
0000
0001
0000
1010
0000
0100
,
0000
0011
0000
1000
0000
0101
0000
0010
0000
1001
0000
0100
0000
1010
0000
0001
,
0000
1100
0000
0001
0000
1110
0000
0001
0000
0110
0000
0001
0000
1010
0000
0100
,
0000
0011
0000
1000
0100
0011
0000
0100
0000
1001
0000
0100
0000
0011
0000
0110
,
0000
1100
0000
0110
0110
0112
0000
1000
0000
0100
0000
0010
0000
0100
0000
1000
,
0000
0100
0000
0010
0003
0020
0000
0001
0000
0100
0000
1000
0000
0100
0000
0001
,
0000
0100
0000
1100
0030
0211
0000
1000
0000
0010
0000
0001
0000
0010
0000
1000
,
0000
0010
0000
0001
0300
2100
0000
0010
0000
0101
0000
0001
0000
0110
0000
0010
,
0000
0011
0000
0110
0000
3111
0000
1000
0000
0101
0000
0010
0000
1100
0000
0001
,
0000
0110
0000
1000
0000
0011
0000
0100
0000
1010
0000
0100
0000
1001
0000
0100
,
0000
1010
0000
0100
0000
1011
0000
0100
0000
0011
0000
1000
0000
0111
0000
1000
,
0000
0011
0000
0100
0000
1011
0000
0100
0000
1001
0000
0010
0000
1100
0000
0001
,
0000
1010
0000
0100
0000
1011
0000
0100
0000
1010
0000
0001
0000
1100
0000
0010
,
0000
0101
0000
1000
0000
0110
0000
0001
0000
1010
0000
0100
0000
0011
0000
1000
,
0000
0101
0000
0010
0000
1101
0000
0010
0000
1100
0000
0001
0000
1010
0000
0100
,
0000
0011
0000
1000
0000
0101
0000
0010
0000
1100
0000
0001
0000
1010
0000
0001
,
0000
1100
0000
0001
0000
1110
0000
0001
0000
0110
0000
1000
0000
0101
0000
0010
,
0000
1100
0000
0001
0000
1010
0000
0100
0000
0011
0000
1000
0000
0110
0000
1000
,
0000
0101
0000
1000
0000
0111
0000
1000
0000
0011
0000
1000
0000
0001
0010
0100
,
0010
0100
1000
0100
0010
0100
1000
0100
0010
0001
0010
0100
1000
0100
0010
0001
,
0010
0100
0010
0001
0010
1100
0000
0010
0000
0101
0000
0010
0000
0100
0000
0011
,
0000
0100
0000
1010
0000
0100
0000
0011
0000
0100
0000
1010
0000
0100
0000
1001
,
0000
0110
0000
0101
0000
1010
0000
0100
0000
0011
0000
0100
0000
1000
0000
0101
,
0000
0010
0000
1001
0000
0100
0000
0011
0000
0100
0000
1010
0000
0100
0000
1010
,
0000
0011
0000
0110
0000
1001
0000
0010
0000
0101
0000
0010
0000
1000
0000
0110
,
0000
0001
0000
1100
0000
0010
0000
0101
0000
0010
0000
1100
0000
0001
0000
1010
,
0000
0101
0000
0011
0000
1100
0000
0010
0000
1001
0000
0100
0000
0010
0000
0101
,
0000
0010
0000
1100
0000
0001
0000
0110
0000
1000
0000
0011
0000
0100
0000
1010
,
0000
0101
0000
1010
0000
1001
0000
0010
0000
0101
0000
0010
0000
1000
0000
0101
,
0000
0010
0000
1100
0000
0010
0000
1001
0000
0100
0000
1010
0000
0100
0000
0011
,
0000
0100
0000
0000
0000
1001
0000
0010
0000
1100
0000
0010
0000
0100
0000
0011
,
0000
0100
0000
1010
0000
0100
0000
1001
0000
0010
0000
1100
0000
0010
0000
0100
,
0000
1010
0000
0100
0000
0011
0000
0100
0000
1001
0000
0010
0000
0100
0000
0011
,
0000
0100
0000
1000
0000
0011
0000
0100
0000
1001
0000
0010
0000
0100
0000
0001
,
0000
0110
0000
1000
0000
0010
0000
0101
0000
0010
0000
1100
0000
0001
0010
0100
,
1000
0100
0010
0001
0010
0100
0010
0100
1000
0100
0010
0100
1000
0100
0010
0001
,
0010
0100
0010
0001
0010
1101
0000
0000
0000
0000
0000
0000
0000
0000
0000
0000
;

//---------------dance-single - ----------------
#NOTES:
     dance-single:
     :
     Medium:
     1:
     0.000,0.000,0.000,0.000,0.000,0.000,0.000,0.000,0.000,0.000:
0000
0000
0000
0000
;
